MeowMS

Holy shit.
 
HomePortalGalleryFAQSearchRegisterLog in
Special treat for anyone still lurking here four years after this server died. I un-hid all of the old posts and such for nostalgia purposes. Have fun.

Share | 
 

 Thurgood 2011 BRRip XviD - ZOMBiES

View previous topic View next topic Go down 
AuthorMessage
sandijuli
Playa
Playa


Character : n/a
Posts : 36
Join date : 2015-05-15

PostSubject: Thurgood 2011 BRRip XviD - ZOMBiES   Thu Dec 10, 2015 12:37 am



Thurgood 2011 BRRip XviD - ZOMBiES > tinyurl.com/oxyoenf



















































: Once & For all Wink www . BretonBritish Sign Langu. Central KhmerChaozhouChechenCherokeeCheyenneChineseCornishCorsicanCreeCreekCreoleCreoles and pidginsCroatianCrowCzechDakotaDanishDariDinkaDioulaDjermaDutchDyulaDzongkhaEast-GreenlandicEastern FrisianEgyptian (Ancient)EnglishEsperantoEstonianEweFaliaschFaroeseFilipinoFinnishFlemishFonFrenchFrench Sign LanguageFulahFurGaelicGalicianGalleganGeorgianGermanGerman Sign LanguageGreboGreekGreek, Ancient (to. HOME BROWSE TOP TORRENTS LATEST TORRENTS SEARCH CLOUD FAQ RSS CONTACT .
Back to top Go down
View user profile
sandijuli
Playa
Playa


Character : n/a
Posts : 36
Join date : 2015-05-15

PostSubject: Thurgood 2011 BRRip XviD - ZOMBiES   Thu Dec 10, 2015 12:38 am

Thurgood 2011 BRRip XviD - ZOMBiES, kumpulan lagu lawas indonesia terpopuler

HOME BROWSE TOP TORRENTS LATEST TORRENTS SEARCH CLOUD REGISTER FAQ CONTACT . show my content dammit. Verified. 792.98 MB83D1A8C40C13E8D38A4DD59119D855BE86E6E67F000/100/100/10 bbcode. Comments You must log in to add a comment. Latest Searches the family man 2000 x264 Max hastings Secret War the family man 2000 x264 720p the family man 2000 x264 720p Airship Enterprise 001 2015 Digital TLK EMPIRE HD cbr DANDY 340 JUC 459 Grand Theft Auto V 2015 PC UPDATE Airship Enterprise 001 2015 Digital TLK EMPIRE HD cbr DriverEasy 4 3 2 22124 With Key Free By TotalFreeSofts . Torrent: Thurgood 2011 BRRip XviD - ZOMBiESThurgood 2011 BRRip XviD - ZOMBiES Jan 11, 2012 in Movies. 8. html bbcode . Popularity Bookmark Share with friends Add to Collection Send to Wall External Info Trailer Wikipedia Other Info Internal Files [ UsaBit.com ] - Thurgood 2011 BRRip XviD - ZOMBiES Thurgood 2011 BRRip XviD - ZOMBiES.avi 792.98 MB www.UsaBit.com.txt 1 Byte Hash Code eedfb93b2787e52e973d9532c5871f5d6dfeea55 Description *********************************************************************** Thurgood 2011 BRRip XviD - ZOMBiES ************************************************************************ Release Name : Thurgood 2011 BRRip XviD - ZOMBiES Rating : 8.5/10 Genre : Drama Stars : Laurence Fishburne Director : Michael Stevens Writers : George Stevens Jr.

Release Date : 24 Feb 2011 Format : AVI Format/Info : Audio Video Interleave File size : 793 MiB Duration : 1h 45mn Overall bit rate : 1 050 Kbps Writing application : MEncoder SVN-r33823-4.1.2 Writing library : MPlayer Video Information ID : 0 Format : xvid Codec ID : xvid Duration : 1h 45mn Bit rate : 913 Kbps Width : 626 pixels Height : 352 pixels Display aspect ratio : 16:9 Frame rate : 23.976 fps Bits/(Pixel*Frame) : 0.173 Stream size : 689 MiB (87%) Audio Information ID : 1 Format : MPEG Audio Format version : Version 1 Format profile : Layer 3 Mode : Joint stereo Mode extension : MS Stereo Codec ID : 55 Codec ID/Hint : MP3 Duration : 1h 45mn Bit rate mode : Constant Bit rate : 32.0 Kbps Channel(s) : 2 channels Sampling rate : 48.0 KHz Compression mode : Lossy Stream size : 94.0 MiB (12%) Alignment : Aligned on interleaves Interleave, duration : 24 ms (0.58 video frame) Interleave, preload duration : 129 ms Writing library : LAME3.98.4 Poster: Screens: ENJOY! Torrent location . udp://tracker.ccc.de:80 4. Movie: Thurgood Detected quality: DVDRip IMDb link: 1844811 IMDb rating: 7.6 (249 votes) Watch on Solarmovie: Thurgood Genre: Drama add Thurgood to bookmarks Release date: 24 February 2011 Language: English Cast: Laurence Fishburne and others Summary: Prior to his appointment to United States Supreme Court Thurgood Marshall worked as a lawyer for the NAACP. udp://tracker.1337x.org:80/announce 7. Details: General Information Rating : 8.5/10 Genre : Drama Stars : Laurence Fishburne Director : Michael Stevens Writers : George Stevens Jr. This one man play tells the story of his role in the civil rights movement and the people that influenced him. Download torrent 792.98 MB seeders:0 leechers:0 Thurgood 2011 BRRip XviD - ZOMBiES . My Friends  Messages Feedback Upload a torrent Bookmarks Personal RSS Feed . .

Dead_Space_2_-FLT_(Crack_Fix_FLT)free fate full versionReal racing 3 hack v2.2 iosAdobe Acrobat X Professional V10.1.3 x32 x64 - Activator.rarmicrosoft windows 8 with office 2013 torrentKaze no stigma saison 2 episode 1 vostfrhema malini hot longest lip touch love making scene target=eat pray love.aviadobe illustrator 8.0 free downloadSongGenie 2.1.2 (Mac OS X)
Back to top Go down
View user profile
 
Thurgood 2011 BRRip XviD - ZOMBiES
View previous topic View next topic Back to top 
Page 1 of 1
 Similar topics
-
» Madden 2011
» Zombies- Specifics, Likelihood, and Do We Even Want 'Em?
» Junior Boys Tournament - Feb 4 and 5, 2011 - Kemptville
» THR's 2011 plans
» WRC 2011

Permissions in this forum:You cannot reply to topics in this forum
MeowMS :: Archive :: Archives :: Old Forums :: HELP!!!-
Jump to: